<?xml version="1.0" standalone="no"?>
<!DOCTYPE svg PUBLIC "-//W3C//DTD SVG 1.1//EN" "http://www.w3.org/Graphics/SVG/1.1/DTD/svg11.dtd" >
<!--
2021-3-2: Created with FontForge (http://fontforge.org)
-->
<svg xmlns="http://www.w3.org/2000/svg" xmlns:xlink="http://www.w3.org/1999/xlink" version="1.1">
<metadata>
Created by FontForge 20170731 at Tue Mar  2 04:09:21 2021
 By root

</metadata>
<defs>
<font id="Flaticon" horiz-adv-x="512" >
  <font-face 
    font-family="Flaticon"
    font-weight="400"
    font-stretch="normal"
    units-per-em="512"
    panose-1="2 0 5 3 0 0 0 0 0 0"
    ascent="448"
    descent="-64"
    bbox="0 -64.001 651.637 448"
    underline-thickness="25.6"
    underline-position="-51.2"
    unicode-range="U+0020-F11A"
  />
    <missing-glyph />
    <glyph glyph-name="space" unicode=" " horiz-adv-x="200" 
 />
    <glyph glyph-name="021-grid" unicode="&#xf114;" 
d="M216.178 448c10.4297 0 18.9629 -8.5332 18.9629 -18.9629v-197.215c0 -10.4297 -8.5332 -18.9629 -18.9629 -18.9629h-197.215c-10.4297 0 -18.9629 8.5332 -18.9629 18.9629v197.215c0 10.4297 8.5332 18.9629 18.9629 18.9629h197.215zM197.215 250.785v159.289
h-159.289v-159.289h159.289zM493.037 448c10.4297 0 18.9629 -8.5332 18.9629 -18.9629v-197.215c0 -10.4297 -8.5332 -18.9629 -18.9629 -18.9629h-197.215c-10.4297 0 -18.9629 8.5332 -18.9629 18.9629v197.215c0 10.4297 8.5332 18.9629 18.9629 18.9629h197.215z
M474.074 250.785v159.289h-159.289v-159.289h159.289zM216.178 171.141c10.4297 0 18.9629 -8.5332 18.9629 -18.9629v-197.215c0 -10.4297 -8.5332 -18.9629 -18.9629 -18.9629h-197.215c-10.4297 0 -18.9629 8.5332 -18.9629 18.9629v197.215
c0 10.4297 8.5332 18.9629 18.9629 18.9629h197.215zM197.215 -26.0742v159.289h-159.289v-159.289h159.289zM493.037 171.141c10.4297 0 18.9629 -8.5332 18.9629 -18.9629v-197.215c0 -10.4297 -8.5332 -18.9629 -18.9629 -18.9629h-197.215
c-10.4297 0 -18.9629 8.5332 -18.9629 18.9629v197.215c0 10.4297 8.5332 18.9629 18.9629 18.9629h197.215zM474.074 -26.0742v159.289h-159.289v-159.289h159.289z" />
    <glyph glyph-name="024-quote" unicode="&#xf117;" 
d="M490.692 401.92v-31.1719c-43.4492 -16.1162 -77.499 -41.5635 -102.148 -76.3408c-24.6504 -34.3525 -36.9746 -70.1904 -36.9746 -107.512c0 -8.05859 1.25293 -13.9961 3.75977 -17.8135c1.6709 -2.54395 3.55078 -3.81641 5.63965 -3.81641
c2.08984 0 5.22266 1.48438 9.40039 4.45312c13.3701 9.75488 30.29 14.6318 50.7617 14.6318c23.8145 0 44.9121 -9.9668 63.2949 -29.8994c18.3828 -19.5098 27.5742 -42.8359 27.5742 -69.9785c0 -28.416 -10.6533 -53.4385 -31.9609 -75.0684
c-20.8896 -21.6289 -46.375 -32.4443 -76.4551 -32.4443c-35.0947 0 -65.3838 14.6318 -90.8691 43.8955s-38.2275 68.4941 -38.2275 117.691c0 57.2549 17.3379 108.572 52.0146 153.952c34.6758 45.3799 89.4072 81.8535 164.19 109.421zM216.206 401.92v-31.1719
c-43.4502 -16.1162 -77.5 -41.5635 -102.149 -76.3408c-24.6494 -34.3525 -36.9746 -70.1904 -36.9746 -107.512c0 -8.05859 1.25391 -13.9961 3.75977 -17.8135c1.67188 -2.54395 3.55176 -3.81641 5.64062 -3.81641s5.22266 1.48438 9.40039 4.45312
c13.3691 9.75488 30.2891 14.6318 50.7607 14.6318c23.8145 0 44.9121 -9.9668 63.2949 -29.8994c18.3828 -19.5098 27.5742 -42.8359 27.5742 -69.9785c0 -28.416 -10.6533 -53.4385 -31.9609 -75.0684c-20.8896 -21.6289 -46.374 -32.4443 -76.4551 -32.4443
c-35.0938 0 -65.3838 14.6318 -90.8691 43.8955s-38.2275 68.4941 -38.2275 117.691c0 57.2549 17.3379 108.572 52.0146 153.952s89.4072 81.8535 164.191 109.421z" />
    <glyph glyph-name="017-right-arrow" unicode="&#xf110;" 
d="M512 191.999l-146.714 -146.715v130.598h-365.286v32.2354h365.286v130.598z" />
    <glyph glyph-name="011-left-quotes-sign" unicode="&#xf10a;" 
d="M0.108398 92.7188c0 0.0615234 0.00683594 0.111328 0.00683594 0.166016c-0.141602 3.55859 -7.30859 197.729 118.782 290.312c113.714 83.4912 -8.95508 -17.9541 -36.3828 -175.26c12.3965 4.24902 25.6387 6.66113 39.4727 6.66113
c67.3145 0 121.88 -54.5645 121.88 -121.879c0 -67.3135 -54.5654 -121.88 -121.88 -121.88c-67.3125 0 -121.879 54.5664 -121.879 121.88zM268.241 92.7188c0 0.0615234 0.00683594 0.111328 0.00683594 0.166016c-0.142578 3.55859 -7.30859 197.729 118.782 290.312
c113.714 83.4912 -8.95508 -17.9541 -36.3828 -175.26c12.3965 4.24902 25.6377 6.66113 39.4727 6.66113c67.3145 0 121.881 -54.5645 121.881 -121.879c0 -67.3135 -54.5654 -121.88 -121.88 -121.88c-67.3135 0 -121.88 54.5664 -121.88 121.88z" />
    <glyph glyph-name="026-link1" unicode="&#xf119;" 
d="M312.396 248.435c6.91699 -6.93262 10.5215 -16.5039 9.89844 -26.2773c-0.588867 -8.17773 -4.10254 -15.8711 -9.89746 -21.6709c-13.4678 -12.6768 -34.4785 -12.6768 -47.9482 0c-19.9863 19.9619 -52.3633 19.9619 -72.3496 0l-108.951 -108.865
c-20.0029 -20.0029 -20.0029 -52.4326 0 -72.4346c20.002 -20.0029 52.4326 -20.0029 72.4346 0l64.415 64.5c2.43359 2.44922 6.10547 3.19141 9.2998 1.87695c17.3369 -7.05078 35.8867 -10.6455 54.6035 -10.5791h3.41211
c4.71191 0.0263672 8.55469 -3.77051 8.58105 -8.48242c0.0136719 -2.29199 -0.895508 -4.49316 -2.52344 -6.10742l-89.584 -89.584c-22.3613 -22.3877 -52.7373 -34.9199 -84.3799 -34.8096c-65.9678 0.0419922 -119.41 53.5537 -119.368 119.521
c0.0195312 31.6123 12.5713 61.9277 34.9033 84.3027l108.524 108.609c22.3701 22.4482 52.7744 35.04 84.4648 34.9814c22.833 0 45.1875 -6.54297 64.416 -18.8564c7.25977 -4.61621 13.9844 -10.0234 20.0488 -16.125zM476.976 413.014
c46.6484 -46.6494 46.6484 -122.281 -0.00292969 -168.93l-108.609 -108.609c-15.2773 -15.2822 -34.4141 -26.1338 -55.3711 -31.3975h-0.939453l-4.94824 -1.02441l-2.73047 -0.511719l-5.88672 -0.852539h-2.90039c-2.21875 0 -4.18164 -0.426758 -6.05762 -0.511719
l-5.11914 -0.597656h-0.511719h-5.97266c-4.25586 0.169922 -8.49902 0.569336 -12.7129 1.19531c-3.49707 0.59668 -6.91016 1.2793 -10.3223 2.13281l-5.03418 1.36426c-1.79199 0.511719 -3.66895 1.10938 -5.45996 1.79199
c-1.79199 0.682617 -3.66895 1.2793 -5.45996 2.04785c-1.79199 0.767578 -3.58398 1.4502 -5.37598 2.30273c-12.6973 5.88477 -24.251 13.9717 -34.126 23.8887c-6.91699 6.93457 -10.5215 16.5059 -9.89746 26.2783c0.548828 8.23828 4.06543 15.9971 9.89746 21.8418
c13.4678 12.6768 34.4785 12.6768 47.9482 0c19.9863 -19.9619 52.3633 -19.9619 72.3496 0l27.9844 27.8135l0.682617 0.768555l80.0283 79.9424c20.0029 20.002 20.0029 52.4326 0 72.4346c-20.002 20.0029 -52.4326 20.0029 -72.4346 0l-64.2441 -64.1592
c-2.43359 -2.44922 -6.10547 -3.19141 -9.2998 -1.87695c-17.3037 7.07715 -35.8232 10.6992 -54.5186 10.665h-3.15625c-3.48535 -0.0664062 -6.66016 1.99414 -8.01953 5.2041c-1.375 3.20117 -0.666016 6.91602 1.79199 9.38574l89.499 89.4131
c46.6484 46.6484 122.281 46.6484 168.93 0z" />
    <glyph glyph-name="027-play" unicode="&#xf11a;" 
d="M473.343 214.322c8.03809 -4.55664 13.0557 -13.0557 13.0557 -22.3232c0 -9.2666 -5.01758 -17.7666 -13.0557 -22.3232l-409.599 -230.399c-3.8916 -2.20117 -8.24316 -3.27637 -12.5439 -3.27637c-4.45508 0 -8.90918 1.17773 -12.9023 3.48145
c-7.88477 4.6084 -12.6982 13.0049 -12.6982 22.1182v460.799c0 9.11328 4.81348 17.5107 12.6982 22.1182c7.83301 4.55664 17.5098 4.65918 25.4463 0.205078z" />
    <glyph glyph-name="009-headphone" unicode="&#xf108;" 
d="M512 168c0 -41.6621 -29.5498 -75.8711 -66.8584 -78.7764c-5.52051 -18.6074 -22.7666 -32.2236 -43.1416 -32.2236h-4c-24.8135 0 -45 20.1865 -45 45v132c0 19.7588 12.8057 36.5723 30.5498 42.6064c-9.37012 66.2559 -63.1455 116.394 -127.55 116.394
s-118.18 -50.1377 -127.55 -116.394c17.7441 -6.03418 30.5498 -22.8477 30.5498 -42.6064v-132c0 -19.6904 -12.7178 -36.4561 -30.3662 -42.5439c5.55664 -20.96 24.6836 -36.4561 47.3662 -36.4561h3.46875c6.27637 18.5801 23.8604 32 44.5312 32h64
c25.916 0 47 -21.084 47 -47s-21.084 -47 -47 -47h-64c-20.6709 0 -38.2549 13.4199 -44.5312 32h-3.46875c-38.9893 0 -71.4492 28.3984 -77.8389 65.5918c-14.998 4.09473 -26.8926 15.7666 -31.3027 30.6318c-37.3086 2.90527 -66.8584 37.1143 -66.8584 78.7764
c0 27.7979 13.1641 52.2695 33.001 66.3535v109.646c0 8.28418 6.71582 15 15 15s15 -6.71582 15 -15v-97.6396c1.27637 0.175781 2.5625 0.314453 3.8584 0.416016c4.42383 14.9141 16.3809 26.6133 31.4453 30.6729c10.0449 82.583 77.1055 145.551 157.695 145.551
s147.65 -62.9678 157.696 -145.551c15.0645 -4.05957 27.0205 -15.7598 31.4453 -30.6729c37.3086 -2.90527 66.8584 -37.1143 66.8584 -78.7764zM224 25c-9.37402 0 -17 -7.62598 -17 -17s7.62598 -17 17 -17h64c9.37402 0 17 7.62598 17 17s-7.62598 17 -17 17h-64z
M30 168c0 -23.7871 15.4248 -44.2676 35 -48.2861v96.5732c-19.5752 -4.01953 -35 -24.5 -35 -48.2871zM129 102v132c0 8.27148 -6.72852 15 -15 15h-4c-8.27148 0 -15 -6.72852 -15 -15v-132c0 -8.27148 6.72852 -15 15 -15h4c8.27148 0 15 6.72852 15 15zM417 102v132
c0 8.27148 -6.72852 15 -15 15h-4c-8.27148 0 -15 -6.72852 -15 -15v-132c0 -8.27148 6.72852 -15 15 -15h4c8.27148 0 15 6.72852 15 15zM447 119.713c19.5752 4.01953 35 24.499 35 48.2861s-15.4248 44.2676 -35 48.2871v-96.5732z" />
    <glyph glyph-name="014-left" unicode="&#xf10d;" 
d="M501.333 202.667c5.89551 0 10.668 -4.77051 10.668 -10.667s-4.77051 -10.667 -10.667 -10.667h-464.917l141.793 -141.791c4.16699 -4.16602 4.16699 -10.916 0 -15.083c-2.08398 -2.08301 -4.8125 -3.125 -7.54199 -3.125c-2.72852 0 -5.45898 1.04199 -7.54199 3.125
l-160 160c-4.16699 4.16602 -4.16699 10.916 0 15.083l160 160c4.16602 4.16699 10.916 4.16699 15.083 0c4.16699 -4.16602 4.16699 -10.916 0 -15.083l-141.792 -141.792h464.916z" />
    <glyph glyph-name="020-down-arrow" unicode="&#xf113;" 
d="M272.118 82.7148h130.596l-146.714 -146.715l-146.714 146.715h130.596v365.285h32.2363v-365.285z" />
    <glyph glyph-name="019-left-arrow" unicode="&#xf112;" 
d="M512 208.117v-32.2354h-365.286v-130.598l-146.714 146.715l146.714 146.716v-130.598h365.286z" />
    <glyph glyph-name="016-close" unicode="&#xf10f;" 
d="M512 417.834l-225.834 -225.834l225.834 -225.834l-30.166 -30.166l-225.834 225.834l-225.834 -225.834l-30.166 30.166l225.834 225.834l-225.834 225.834l30.166 30.166l225.834 -225.834l225.834 225.834z" />
    <glyph glyph-name="006-calendar" unicode="&#xf105;" 
d="M133.332 128h-53.332c-8.83203 0 -16 7.16797 -16 16v53.332c0 8.83203 7.16797 16 16 16h53.332c8.83203 0 16 -7.16797 16 -16v-53.332c0 -8.83203 -7.16797 -16 -16 -16zM96 160h21.332v21.332h-21.332v-21.332zM96 160zM133.332 0h-53.332
c-8.83203 0 -16 7.16797 -16 16v53.332c0 8.83203 7.16797 16 16 16h53.332c8.83203 0 16 -7.16797 16 -16v-53.332c0 -8.83203 -7.16797 -16 -16 -16zM96 32h21.332v21.332h-21.332v-21.332zM96 32zM282.668 128h-53.3359c-8.83203 0 -16 7.16797 -16 16v53.332
c0 8.83203 7.16797 16 16 16h53.3359c8.83203 0 16 -7.16797 16 -16v-53.332c0 -8.83203 -7.16797 -16 -16 -16zM245.332 160h21.3359v21.332h-21.3359v-21.332zM245.332 160zM282.668 0h-53.3359c-8.83203 0 -16 7.16797 -16 16v53.332c0 8.83203 7.16797 16 16 16h53.3359
c8.83203 0 16 -7.16797 16 -16v-53.332c0 -8.83203 -7.16797 -16 -16 -16zM245.332 32h21.3359v21.332h-21.3359v-21.332zM245.332 32zM432 128h-53.332c-8.83203 0 -16 7.16797 -16 16v53.332c0 8.83203 7.16797 16 16 16h53.332c8.83203 0 16 -7.16797 16 -16v-53.332
c0 -8.83203 -7.16797 -16 -16 -16zM394.668 160h21.332v21.332h-21.332v-21.332zM394.668 160zM453.332 -64h-394.664c-32.3633 0 -58.668 26.3047 -58.668 58.668v352c0 32.3633 26.3047 58.6641 58.668 58.6641h394.664c32.3633 0 58.668 -26.3008 58.668 -58.6641v-352
c0 -32.3633 -26.3047 -58.668 -58.668 -58.668zM58.668 373.332c-14.6992 0 -26.668 -11.9648 -26.668 -26.6641v-352c0 -14.6992 11.9688 -26.668 26.668 -26.668h394.664c14.6992 0 26.668 11.9688 26.668 26.668v352c0 14.6992 -11.9688 26.6641 -26.668 26.6641
h-394.664zM58.668 373.332zM496 245.332h-480c-8.83203 0 -16 7.16797 -16 16s7.16797 16 16 16h480c8.83203 0 16 -7.16797 16 -16s-7.16797 -16 -16 -16zM496 245.332zM122.668 320c-8.83203 0 -16 7.16797 -16 16v96c0 8.83203 7.16797 16 16 16s16 -7.16797 16 -16v-96
c0 -8.83203 -7.16797 -16 -16 -16zM122.668 320zM389.332 320c-8.83203 0 -16 7.16797 -16 16v96c0 8.83203 7.16797 16 16 16s16 -7.16797 16 -16v-96c0 -8.83203 -7.16797 -16 -16 -16zM389.332 320z" />
    <glyph glyph-name="025-check" unicode="&#xf118;" 
d="M635.597 347.638l-367.286 -394.421c-21.3857 -22.9561 -56.042 -22.9561 -77.4287 0l-174.842 187.766c-21.3867 22.9531 -21.3867 60.1807 0 83.1348c21.375 22.9658 56.042 22.9658 77.418 0l136.133 -146.188l328.577 352.854
c21.3877 22.9541 56.0547 22.9541 77.4287 0c21.3877 -22.9648 21.3877 -60.1924 0 -83.1465z" />
    <glyph glyph-name="007-coding" unicode="&#xf106;" 
d="M360 440c17.6406 -0.0234375 31.9766 -14.3594 32 -32v-432c-0.0234375 -17.6406 -14.3594 -31.9766 -32 -32h-208c-17.6406 0.0234375 -31.9766 14.3594 -32 32v432c0.0234375 17.6406 14.3594 31.9766 32 32h208zM293.44 424h-75.1904l4 -16h66.6904zM376 -24v432
c-0.0117188 8.82031 -7.17969 15.9883 -16 16h-49.9404l-7.35938 -26.1699c-0.907227 -3.21777 -4.35645 -5.83008 -7.7002 -5.83008h-79c-3.44727 0.000976562 -6.92383 2.71582 -7.75977 6.05957l-6.49023 25.9404h-49.75c-8.82031 -0.0117188 -15.9883 -7.17969 -16 -16
v-432c0.0117188 -8.82031 7.17969 -15.9883 16 -16h208c8.82031 0.0117188 15.9883 7.17969 16 16zM216 -8c4.41602 0 8 -3.58398 8 -8s-3.58398 -8 -8 -8h-56c-4.41602 0 -8 3.58398 -8 8s3.58398 8 8 8h56zM248 -8c4.41602 0 8 -3.58398 8 -8s-3.58398 -8 -8 -8h-8
c-4.41602 0 -8 3.58398 -8 8s3.58398 8 8 8h8zM284.116 238.86c2.14355 -1.28711 3.88379 -4.36035 3.88379 -6.86035c0 -1.22363 -0.510742 -3.06738 -1.13965 -4.11621l-48 -80c-1.28711 -2.14355 -4.36035 -3.88379 -6.86035 -3.88379c-4.41602 0 -8 3.58398 -8 8
c0 1.22363 0.510742 3.06738 1.13965 4.11621l48 80c1.28711 2.14355 4.36035 3.88379 6.86035 3.88379c1.22363 0 3.06738 -0.510742 4.11621 -1.13965zM310.247 237l32 -40c0.96875 -1.20996 1.75488 -3.4502 1.75488 -5s-0.786133 -3.79004 -1.75488 -5l-32 -40
c-1.32617 -1.65723 -4.125 -3.00195 -6.24707 -3.00195c-4.41699 0 -8.00195 3.58496 -8.00195 8.00195c0 1.5498 0.786133 3.79004 1.75488 5l28 35l-28 35c-0.96875 1.20996 -1.75488 3.4502 -1.75488 5c0 4.41699 3.58496 8.00195 8.00195 8.00195
c2.12207 0 4.9209 -1.34473 6.24707 -3.00195zM201.753 147l-32 40c-0.96875 1.20996 -1.75488 3.4502 -1.75488 5s0.786133 3.79004 1.75488 5l32 40c1.32617 1.65723 4.125 3.00195 6.24707 3.00195c4.41699 0 8.00195 -3.58496 8.00195 -8.00195
c0 -1.5498 -0.786133 -3.79004 -1.75488 -5l-28 -35l28 -35c0.96875 -1.20996 1.75488 -3.4502 1.75488 -5c0 -4.41699 -3.58496 -8.00195 -8.00195 -8.00195c-2.12207 0 -4.9209 1.34473 -6.24707 3.00195z" />
    <glyph glyph-name="001-telephone" unicode="&#xf100;" 
d="M389.257 109.302c20.3496 -20.2432 40.6992 -40.4863 60.9424 -60.8359c16.9404 -17.0469 16.834 -37.9287 -0.212891 -55.1885c-11.5068 -11.6133 -23.7598 -22.6934 -34.627 -34.8398c-15.874 -17.792 -35.6914 -23.5459 -58.4912 -22.2666
c-33.1348 1.81055 -63.6064 12.7842 -93.0117 27.0615c-65.3105 31.749 -121.139 75.751 -167.911 131.366c-34.626 41.126 -63.1797 85.9805 -81.9307 136.481c-9.16309 24.3975 -15.6621 49.4355 -13.6377 75.9648c1.27832 16.3008 7.35156 30.2578 19.3906 41.6572
c12.998 12.3594 25.251 25.251 38.0361 37.8232c16.6201 16.4072 37.5029 16.4072 54.2295 0.106445c10.335 -10.1221 20.4561 -20.4561 30.6846 -30.6846c9.9082 -10.0146 19.8164 -19.8164 29.7256 -29.832c17.4727 -17.5791 17.4727 -38.0352 0.106445 -55.5078
c-12.4658 -12.5723 -24.8242 -25.1445 -37.5029 -37.3965c-3.30273 -3.30273 -3.62305 -5.9668 -1.91797 -10.0156c8.41699 -20.0293 20.4561 -37.8223 33.9873 -54.4424c27.2744 -33.4551 58.0654 -63.1797 94.8223 -86.2998
c7.88477 -4.90137 16.6211 -8.52344 24.8242 -12.998c4.15527 -2.34375 7.03223 -1.59863 10.4414 1.91797c12.4658 12.7852 25.1445 25.3564 37.8223 37.9287c16.6211 16.5137 37.5029 16.5137 54.2305 0zM368.907 194.216
c-4.79395 27.9141 -17.8994 53.2715 -37.9287 73.3018c-21.2021 21.2012 -48.0508 34.5195 -77.5635 38.6748l5.54004 39.5273c38.1426 -5.32715 72.7686 -22.5869 100.15 -49.9688c25.8896 -25.9961 42.9365 -58.7051 49.1162 -94.8223zM430.382 365.11
c43.043 -43.1504 71.2773 -97.4863 81.6113 -157.363l-39.3135 -6.71191c-8.84277 51.6729 -33.2412 98.6582 -70.4248 135.841c-39.207 39.1016 -88.8564 63.9258 -143.619 71.5967l5.54004 39.5273c63.3926 -8.84277 120.819 -37.5029 166.206 -82.8896z" />
    <glyph glyph-name="003-group" unicode="&#xf102;" 
d="M461.6 149.088c29.6963 -6.46387 50.4004 -32.2236 50.4004 -62.6875v-38.4004c0 -8.83203 -7.16797 -16 -16 -16h-99.2002c-8.83203 0 -16 7.16797 -16 16s7.16797 16 16 16h83.2002v22.4004c0 15.2637 -10.3359 28.1914 -25.1523 31.3916l-82.8477 17.9199
c-7.3916 1.59961 -12.6396 8.12793 -12.6396 15.6484v39.04c0 4.25586 1.69531 8.31934 4.7041 11.3271c2.04785 2.17676 6.62402 11.2969 9.34375 16.7686c4.95996 9.8877 9.21582 18.4316 14.3682 23.5518c8.03125 7.77637 16.3838 16.96 18.6875 27.3281
c1.4082 6.84766 0.480469 8.57617 -0.864258 11.2324c-1.47168 2.87988 -3.67969 7.16797 -3.67969 13.1514c0 12.7686 0 34.1445 -3.80762 46.9443c-0.416016 1.37598 -0.640625 2.84766 -0.671875 4.28809c-0.288086 18.3359 -3.48828 21.6641 -5.79199 24.0957
c-0.864258 0.448242 -5.4082 1.21582 -8.09668 1.69629c-5.69531 0.992188 -12.1602 2.1123 -17.9199 5.34375c-9.56738 5.15234 -18.8799 7.61621 -29.9834 7.87207c-17.6641 -0.799805 -37.2168 -9.37598 -49.9844 -22.4004
c-6.24023 -6.33594 -16.3525 -6.39941 -22.624 -0.223633c-6.33594 6.17578 -6.40039 16.3203 -0.223633 22.624c18.4951 18.8477 45.5996 30.8164 72.4795 32c17.2803 -0.383789 31.4238 -4.12793 45.6963 -11.8076c1.4082 -0.704102 5.34375 -1.37598 7.96777 -1.82422
c8.48047 -1.47168 19.04 -3.2959 26.3359 -11.7441c9.34375 -9.72754 13.4717 -22.0479 14.0801 -42.9443c4.54395 -17.0234 4.54395 -39.0713 4.54395 -53.8877c2.71973 -3.55176 7.55176 -12.8955 3.83984 -31.04c-4.22363 -19.04 -16.96 -33.248 -27.584 -43.5195
c-1.50391 -1.76074 -5.50391 -9.72852 -8.16016 -15.04c-3.55176 -7.13672 -6.97559 -13.9844 -10.6553 -19.3281v-20.6084zM301.568 84.96c29.2158 -6.36816 50.4316 -32.6719 50.4316 -62.5596v-38.4004c0 -8.83203 -7.16797 -16 -16 -16h-320
c-8.83203 0 -16 7.16797 -16 16v38.4004c0 29.8877 21.2158 56.1914 50.4316 62.5273l70.2725 15.2646v20.7676c-3.64844 5.3125 -7.10449 12.0322 -10.6562 19.04c-2.71973 5.28027 -6.78418 13.248 -8.54395 15.2324c-11.3281 11.0713 -23.4883 24.96 -27.2637 43.3271
c-3.77637 18.2402 0.992188 27.6162 3.55176 32.6406l0.0322266 7.80762c-0.383789 19.7119 -0.383789 36.9277 3.77539 48.4482c14.624 40.5762 58.2725 63.2002 93.792 64.5439c17.6006 -0.448242 31.8086 -4.25586 45.792 -12.0322
c1.2168 -0.607422 5.24805 -1.2793 7.93652 -1.72754c8.28809 -1.4082 18.624 -3.13672 25.9521 -11.0723c9.75977 -10.624 13.8242 -22.9756 14.3359 -43.7441c4.47949 -17.2158 4.47949 -40.6719 4.47949 -53.5361c2.75195 -3.67969 7.52051 -13.0557 3.74414 -31.3281
c-3.77539 -18.3359 -15.9355 -32.2236 -27.3594 -43.3916c-1.66406 -1.8877 -5.66406 -9.82422 -8.32031 -15.0723c-3.55176 -7.07129 -6.97656 -13.8232 -10.6562 -19.1357v-20.7363zM320 0v22.4004c0 14.9434 -10.624 28.0957 -25.2158 31.2637l-82.8799 17.9844
c-7.36035 1.59961 -12.6084 8.12793 -12.6084 15.6475v39.2637c0 4.28809 1.69629 8.38477 4.76855 11.3926c2.01562 2.14355 6.5918 11.168 9.31152 16.5762c4.99219 9.8877 9.3125 18.4316 14.5283 23.4873c8.35156 8.19238 16.3516 17.0879 18.3682 27.0088
c1.50391 7.2959 0.607422 9.02344 -0.736328 11.6797c-1.44043 2.87988 -3.64844 7.2002 -3.64844 13.2158c0 10.9443 0 33.7598 -3.80762 46.7197c-0.416016 1.4082 -0.639648 2.84863 -0.639648 4.28809c-0.224609 18.3682 -3.36035 21.792 -5.88867 24.5439
c-0.639648 0 -4.83203 0.704102 -7.77539 1.2168c-5.76074 0.991211 -12.2881 2.0791 -18.1123 5.31152c-9.56836 5.31152 -18.5605 7.71191 -30.0801 8c-23.2002 -0.896484 -54.1758 -16.416 -63.9043 -43.3916c-2.46387 -6.88086 -2.08008 -25.7285 -1.85547 -36.96
l0.12793 -9.76074c0 -6.01562 -2.20801 -10.3682 -3.64844 -13.2158c-1.34375 -2.62402 -2.23926 -4.38379 -0.735352 -11.6475c2.01562 -9.9209 10.0156 -18.8486 18.3672 -27.0088c5.18457 -5.05566 9.53613 -13.5996 14.624 -23.4873
c2.75195 -5.4082 7.36035 -14.4326 9.4082 -16.6084c2.81641 -2.97559 4.73633 -7.26367 4.73633 -11.3604v-39.2637c0 -7.55176 -5.24805 -14.0479 -12.6084 -15.6475l-82.8799 -17.9844c-14.5918 -3.16797 -25.2158 -16.3203 -25.2158 -31.2637v-22.4004h288z" />
    <glyph glyph-name="005-schedule" unicode="&#xf104;" 
d="M313 206c74.4375 0 135 -60.5625 135 -135s-60.5625 -135 -135 -135s-135 60.5625 -135 135s60.5625 135 135 135zM313 -24c52.3828 0 95 42.6172 95 95s-42.6172 95 -95 95s-95 -42.6172 -95 -95s42.6172 -95 95 -95zM166.098 -24
c9.79297 -15.0898 21.8359 -28.5859 35.6641 -40h-141.762c-33.0859 0 -60 26.9141 -60 60v352c0 33.0859 26.9141 60 60 60h76.4258c8.25781 23.2812 30.5 40 56.5742 40s48.3164 -16.7188 56.5742 -40h75.4258c33.0859 0 60 -26.9141 60 -60v-117.504
c-12.6094 5.71484 -26.0195 9.96875 -40 12.5625v104.941c0 11.0273 -8.97266 20 -20 20h-32v-79h-200v79h-33c-11.0273 0 -20 -8.97266 -20 -20v-352c0 -11.0273 8.97266 -20 20 -20h106.098zM173 368h-40v-39h120v39h-40v20c0 11.0273 -8.97266 20 -20 20
s-20 -8.97266 -20 -20v-20zM332 91h34v-40h-74v87h40v-47zM332 91z" />
    <glyph glyph-name="010-magnifiying-glass" unicode="&#xf109;" 
d="M506.169 -30.0186c7.77637 -7.77441 7.77637 -20.376 0.00292969 -28.1504c-3.88867 -3.88867 -8.98438 -5.83105 -14.0781 -5.83105s-10.1895 1.94238 -14.0752 5.83105l-124.955 124.953c-37.3496 -31.0586 -85.3135 -49.7686 -137.568 -49.7686
c-118.825 0 -215.495 96.665 -215.495 215.484c0 118.827 96.6699 215.5 215.495 215.5c118.821 0 215.491 -96.6729 215.491 -215.5c0 -52.2578 -18.7119 -100.219 -49.7705 -137.568zM39.8125 232.5c0 -96.8662 78.8105 -175.672 175.683 -175.672
c96.8691 0 175.677 78.8057 175.677 175.672c0 96.875 -78.8076 175.688 -175.677 175.688c-96.8721 0 -175.683 -78.8125 -175.683 -175.688z" />
    <glyph glyph-name="015-right" unicode="&#xf10e;" 
d="M508.875 199.542c4.16699 -4.16699 4.16699 -10.917 0.000976562 -15.083l-160 -160c-2.08398 -2.08301 -4.8125 -3.125 -7.54199 -3.125c-2.72852 0 -5.45898 1.04199 -7.54199 3.125c-4.16699 4.16602 -4.16699 10.916 0 15.083l141.792 141.791h-464.917
c-5.89551 0 -10.667 4.77051 -10.667 10.667s4.77148 10.667 10.667 10.667h464.917l-141.792 141.792c-4.16699 4.16602 -4.16699 10.916 0 15.083c4.16602 4.16699 10.916 4.16699 15.083 0z" />
    <glyph glyph-name="023-menu-of-three-lines" unicode="&#xf116;" 
d="M0 368h512v-32h-512v32zM0 176v32h512v-32h-512zM0 16v32h512v-32h-512z" />
    <glyph glyph-name="013-up" unicode="&#xf10c;" 
d="M423.542 284.875c4.16602 -4.16699 4.16602 -10.917 0.000976562 -15.084c-2.08398 -2.08301 -4.8125 -3.125 -7.54199 -3.125c-2.72852 0 -5.45898 1.04199 -7.54199 3.125l-141.792 141.792v-464.917c0 -5.89648 -4.77051 -10.667 -10.667 -10.667
s-10.667 4.77051 -10.667 10.667v464.917l-141.791 -141.791c-4.16602 -4.16699 -10.916 -4.16699 -15.083 0c-4.16699 4.16602 -4.16699 10.916 0 15.083l160 160c4.16602 4.16699 10.916 4.16699 15.083 0z" />
    <glyph glyph-name="012-profile" unicode="&#xf10b;" 
d="M256 448c71.0166 0 128.789 -57.7725 128.789 -128.789s-57.7725 -128.789 -128.789 -128.789s-128.789 57.7725 -128.789 128.789s57.7725 128.789 128.789 128.789zM256 228.301c50.127 0 90.9102 40.7832 90.9102 90.9102s-40.7832 90.9102 -90.9102 90.9102
s-90.9102 -40.7832 -90.9102 -90.9102s40.7832 -90.9102 90.9102 -90.9102zM256 144.967c113.284 0 202.022 -91.7881 202.022 -208.967h-37.8799c0 97.5332 -70.5684 171.088 -164.143 171.088s-164.143 -73.5488 -164.143 -171.088h-37.8799
c0 117.18 88.7383 208.967 202.022 208.967z" />
    <glyph glyph-name="002-chat" unicode="&#xf101;" 
d="M223.982 448c123.472 0 223.972 -81.8135 223.972 -182.377s-100.5 -182.378 -223.972 -182.378c-17.8545 0 -35.2275 1.66406 -51.7383 4.95996c-72.4062 -37.5635 -136.238 -40.2188 -152.845 -40.2188c-2.27148 0 -3.67969 0.0634766 -4.06348 0.0634766
c-7.93457 0.352539 -14.4619 6.46387 -15.2295 14.3984c-0.800781 7.90332 4.35059 15.1982 12.0625 17.1182c24.3809 6.04688 44.2822 30.6514 58.6484 52.9854c-45.2109 34.3633 -70.8076 82.1338 -70.8076 133.071c0 100.563 100.5 182.377 223.973 182.377z
M223.982 115.241c105.874 0 191.976 67.4795 191.976 150.382c0 82.9336 -86.1016 150.381 -191.976 150.381c-105.875 0 -191.977 -67.4473 -191.977 -150.381c0 -44.5391 25.1494 -86.5498 69.0156 -115.282c7.13477 -4.6709 9.375 -14.1416 5.02344 -21.501
c-8.03125 -13.5986 -17.4697 -28.3164 -28.7646 -41.499c24.3809 5.50391 54.041 15.1025 85.0137 31.8047c3.42383 1.85547 7.39062 2.39941 11.1348 1.53516c15.9658 -3.61523 32.9551 -5.43945 50.5537 -5.43945zM499.884 -32.1318
c7.55078 -1.91992 12.6377 -8.95898 12.0625 -16.7344c-0.576172 -7.74316 -6.6875 -13.9502 -14.4307 -14.6855c-0.704102 -0.0644531 -5.05566 -0.448242 -12.3818 -0.448242c-23.0693 0 -75.3828 3.83984 -133.616 33.7881
c-72.5986 -14.1104 -149.613 5.59863 -199.238 49.3057c-6.62305 5.85547 -7.26367 15.9658 -1.4082 22.5889c5.82324 6.62305 15.9023 7.29492 22.5889 1.4082c43.3867 -38.2676 112.658 -55.001 176.971 -40.8594c3.71094 0.799805 7.67871 0.288086 11.0381 -1.53516
c27.165 -14.6221 53.1777 -22.7812 74.9023 -27.293c-8.51074 9.66309 -16.6699 21.1494 -24.5723 34.4912c-4.38379 7.35938 -2.20801 16.8623 4.95898 21.5342c40.1553 26.3643 63.1924 64.7598 63.1924 105.33c0 17.2461 -4.19141 34.2998 -12.415 50.7461
c-3.93555 7.90332 -0.735352 17.502 7.16797 21.4697c7.80664 3.90332 17.501 0.799805 21.4688 -7.13574c10.4629 -20.9248 15.7744 -42.8428 15.7744 -65.0801c0 -46.9062 -23.3896 -90.9639 -64.7285 -122.96c16.6699 -24.541 34.3643 -39.291 52.666 -43.9307z" />
    <glyph glyph-name="008-chat-1" unicode="&#xf107;" 
d="M495.254 53.2344l16.4502 -82.2637c1.85059 -9.25391 -5.22949 -17.9404 -14.709 -17.9404c-2.09473 0 5.01855 -1.28125 -86.1865 16.75c-97.2334 -46.1211 -214.299 6.51953 -243.446 111.469c-23.1152 1.10254 -45.3076 6.63281 -66.1689 16.5283l-83.2764 -16.4648
c-10.4746 -2.07227 -19.7119 7.18359 -17.6182 17.6553l16.4512 82.2637c-11.1123 23.4346 -16.7422 48.5684 -16.7422 74.792c0 96.4932 78.9512 174.996 175.996 174.996c78.8057 0 147.682 -52.6816 168.649 -128.21c93.04 -4.50195 167.343 -81.1748 167.343 -174.783
c0 -26.2236 -5.62988 -51.3574 -16.7422 -74.792zM110.094 126.833c16.2871 -8.32715 33.6025 -13.377 51.6777 -15.1143c-8.86133 95.417 60.2061 178.162 151.91 189.887c-19.3613 58.5059 -74.7646 99.415 -137.678 99.415
c-80.5029 0 -145.997 -65.0459 -145.997 -144.997c0 -23.2207 5.31934 -45.3945 15.8057 -65.9102c1.54102 -3.01074 2.01758 -6.45508 1.35449 -9.76953l-13.0488 -65.249l66.2383 13.0967c3.30371 0.654297 6.73633 0.174805 9.7373 -1.3584zM464.838 52.3467
c-0.663086 3.31543 -0.186523 6.75879 1.35449 9.76953c10.4873 20.5156 15.8057 42.6895 15.8057 65.9102c0 79.9512 -65.4941 144.997 -145.997 144.997c-79.9512 0 -144.996 -65.0459 -144.996 -144.997s65.0449 -144.996 144.996 -144.996
c23.2207 0 45.3955 5.31836 65.9102 15.8057c3.00098 1.5332 6.43164 2.01172 9.7373 1.3584l66.2383 -13.0967z" />
    <glyph glyph-name="022-list" unicode="&#xf115;" 
d="M47.1172 289.467c-25.9805 0 -47.1172 21.1367 -47.1172 47.1172c0 26.0127 21.1367 47.1494 47.1172 47.1494h417.766c25.9805 0 47.1172 -21.1367 47.1172 -47.1494c0 -25.9805 -21.1367 -47.1172 -47.1172 -47.1172h-417.766zM47.1172 353.733
c-9.43848 0 -17.1172 -7.67871 -17.1172 -17.1172c0 -9.46973 7.67871 -17.1494 17.1172 -17.1494h417.766c9.43848 0 17.1172 7.67773 17.1172 17.1494c0 9.4375 -7.67871 17.1172 -17.1172 17.1172h-417.766zM464.883 239.133
c25.9805 0 47.1172 -21.1357 47.1172 -47.1484c0 -25.9805 -21.1367 -47.1172 -47.1172 -47.1172h-417.766c-25.9805 0 -47.1172 21.1367 -47.1172 47.1172c0 26.0127 21.1367 47.1484 47.1172 47.1484h417.766zM464.883 174.867c9.43848 0 17.1172 7.67773 17.1172 17.1484
c0 9.43848 -7.67871 17.1172 -17.1172 17.1172h-417.766c-9.43848 0 -17.1172 -7.67871 -17.1172 -17.1172c0 -9.46973 7.67871 -17.1484 17.1172 -17.1484h417.766zM464.883 94.5332c25.9805 0 47.1172 -21.1367 47.1172 -47.1494
c0 -25.9795 -21.1367 -47.1172 -47.1172 -47.1172h-417.766c-25.9805 0 -47.1172 21.1377 -47.1172 47.1172c0 26.0127 21.1367 47.1494 47.1172 47.1494h417.766zM464.883 30.2666c9.43848 0 17.1172 7.67871 17.1172 17.1494c0 9.4375 -7.67871 17.1172 -17.1172 17.1172
h-417.766c-9.43848 0 -17.1172 -7.67969 -17.1172 -17.1172c0 -9.46973 7.67871 -17.1494 17.1172 -17.1494h417.766z" />
    <glyph glyph-name="018-up-arrow" unicode="&#xf111;" 
d="M402.714 301.285h-130.596v-365.285h-32.2363v365.285h-130.596l146.714 146.715z" />
    <glyph glyph-name="004-cart" unicode="&#xf103;" 
d="M194.589 65.29c35.6455 0 64.6465 -28.999 64.6465 -64.6455c0 -35.6455 -29 -64.6455 -64.6465 -64.6455c-35.6455 0 -64.6455 29 -64.6455 64.6455c0 35.6465 29 64.6455 64.6455 64.6455zM194.589 -25.2129c14.2617 0 25.8584 11.5977 25.8584 25.8574
c0 14.2607 -11.6045 25.8584 -25.8584 25.8584c-14.2607 0 -25.8574 -11.5977 -25.8574 -25.8584s11.5967 -25.8574 25.8574 -25.8574zM385.939 65.29c35.6455 0 64.6455 -28.999 64.6455 -64.6455c0 -35.6455 -29 -64.6455 -64.6455 -64.6455s-64.6455 29 -64.6455 64.6455
c0 35.6465 29 64.6455 64.6455 64.6455zM385.939 -25.2129c14.2607 0 25.8584 11.5977 25.8584 25.8574c0 14.2607 -11.5977 25.8584 -25.8584 25.8584s-25.8574 -11.5977 -25.8574 -25.8584s11.5967 -25.8574 25.8574 -25.8574zM498.086 321.727
c3.67871 -4.62207 5.04883 -10.6729 3.71777 -16.4326l-45.252 -195.876c-2.03516 -8.81152 -9.86426 -15.0361 -18.8955 -15.0361h-271.511c-9.25684 0 -17.2285 6.54785 -19.0254 15.6309l-56.9131 287.665l-64.6074 11.8438
c-10.5381 1.93262 -17.5127 12.0361 -15.5801 22.5732c1.93359 10.5371 12.0186 17.5264 22.5742 15.5801l77.5752 -14.2217c7.82812 -1.43555 13.9824 -7.50488 15.5273 -15.3076l17.6289 -89.0947h339.582c5.90918 0 11.4941 -2.69531 15.1787 -7.32422zM422.231 133.168
l36.2852 157.089h-307.519l31.0752 -157.089h240.158z" />
  </font>
</defs>
</svg>
